<?xml version="1.0" standalone="no"?>
<!DOCTYPE svg PUBLIC "-//W3C//DTD SVG 1.1//EN" "http://www.w3.org/Graphics/SVG/1.1/DTD/svg11.dtd" >
<svg xmlns="http://www.w3.org/2000/svg" xmlns:xlink="http://www.w3.org/1999/xlink" version="1.1">
<metadata></metadata>
<defs>
<font id="champagne__limousinesregular" horiz-adv-x="1070" >
<font-face units-per-em="2048" ascent="1638" descent="-410" />
<missing-glyph horiz-adv-x="508" />
<glyph horiz-adv-x="0" />
<glyph unicode="&#xd;" horiz-adv-x="508" />
<glyph unicode=" "  horiz-adv-x="508" />
<glyph unicode="&#x09;" horiz-adv-x="508" />
<glyph unicode="&#xa0;" horiz-adv-x="508" />
<glyph unicode="!" horiz-adv-x="269" d="M55 67q0 33 23.5 56t56.5 23q32 0 55.5 -23t23.5 -56t-23.5 -56t-55.5 -23q-33 0 -56.5 23t-23.5 56zM93 244v1170h80v-1170h-80z" />
<glyph unicode="&#x22;" horiz-adv-x="397" d="M55 881v530h80v-530h-80zM263 881v530h79v-530h-79z" />
<glyph unicode="#" horiz-adv-x="909" d="M-20 446l41 80h197l79 320h-200l42 80h177l88 358h75l-88 -358h225l88 358h75l-88 -358h198l-42 -80h-175l-79 -320h178l-41 -80h-157l-85 -346h-75l85 346h-225l-85 -346h-75l85 346h-218zM293 526h225l79 320h-225z" />
<glyph unicode="$" d="M176 398l72 27q11 -102 84 -173q71 -72 167 -82v622q-91 40 -150 99q-76 75 -76 183q0 105 76 181q64 65 150 75v89h80v-91q78 -14 137 -72q41 -40 59 -95l-69 -28q-15 41 -45 71q-36 35 -82 47v-410q121 -47 208 -134q106 -105 106 -253q0 -150 -106 -255 q-89 -90 -208 -104v-99h-80v98q-127 10 -221 105q-84 84 -102 199zM350 1074q0 -76 53 -129q37 -37 96 -70v379q-54 -9 -95 -51q-54 -53 -54 -129zM579 172q88 13 155 80q83 83 83 202q0 117 -83 200q-65 66 -155 107v-589z" />
<glyph unicode="%" d="M66 869q0 85 59.5 145t144.5 60t144.5 -60t59.5 -145q0 -84 -59.5 -144t-144.5 -60t-144.5 60t-59.5 144zM97 48l811 1158l65 -45l-811 -1158zM143 869q0 -53 37 -90t90 -37q52 0 89.5 37t37.5 90t-37.5 90.5t-89.5 37.5q-53 0 -90 -37.5t-37 -90.5zM596 339 q0 85 59.5 144.5t144.5 59.5t144.5 -59.5t59.5 -144.5t-59.5 -144.5t-144.5 -59.5t-144.5 59.5t-59.5 144.5zM673 339q0 -53 37 -90t90 -37q52 0 90 37t38 90t-38 90.5t-90 37.5q-53 0 -90 -37.5t-37 -90.5z" />
<glyph unicode="&#x26;" horiz-adv-x="1167" d="M73 403q0 173 121 302q83 89 216 134q-64 27 -130.5 98t-66.5 196q0 122 87.5 210t211.5 88t212 -88q49 -47 67 -105l-71 -28q-16 43 -52 79q-65 64 -156 64t-155.5 -64t-64.5 -156q0 -91 62.5 -157.5t115.5 -86.5t132 -21v-75l-63 -1q-194 -37 -291 -143t-97 -246 q0 -141 99.5 -241t241.5 -100q140 0 240 100q58 58 83 130q-11 5 -22 11q-42 24 -106 90q-42 39 -60 49q-19 10 -39 10q-11 0 -22 -2q-32 -9 -48 -37q-11 -20 -11 -39q0 -11 3 -22q9 -32 35 -46q17 -9 46 -9q16 0 36 3l-8 -73q-22 -6 -44 -6q-35 0 -69 18q-53 30 -70 92 q-6 22 -6 43q0 39 21 76q33 56 95 73q22 6 43 6q39 0 75 -21q35 -19 92 -79q51 -46 75 -60q27 -15 55 -15q16 0 32 5q46 12 70 54q15 27 15 55q0 15 -5 31q-12 45 -53 69q-25 14 -56 14q-22 0 -47 -7l-1 79q25 7 49 7q47 0 92 -26q69 -39 90 -115q7 -27 7 -52q0 -48 -25 -92 q-39 -69 -117 -91q-23 -6 -44 -7q-29 -95 -105 -171q-123 -124 -296 -124t-296 123t-123 297z" />
<glyph unicode="'" horiz-adv-x="190" d="M55 881v530h80v-530h-80z" />
<glyph unicode="(" horiz-adv-x="552" d="M55 689q0 421 211 664q66 77 142 130h89q-83 -50 -186 -188q-150 -204 -150 -561v-90q0 -358 150 -562q103 -138 186 -188h-89q-76 53 -142 130q-211 243 -211 665z" />
<glyph unicode=")" horiz-adv-x="552" d="M55 -106q83 50 186 188q150 204 150 562v90q0 357 -150 561q-103 138 -186 188h89q76 -53 142 -130q211 -243 211 -664q0 -422 -211 -665q-66 -77 -142 -130h-89z" />
<glyph unicode="*" horiz-adv-x="730" d="M75 1027l221 119l-221 119l46 66l205 -109v189h79v-188l204 108l46 -66l-221 -119l221 -119l-46 -66l-204 108v-188h-79v189l-205 -109z" />
<glyph unicode="+" d="M85 633v80h410v410h80v-410h410v-80h-410v-410h-80v410h-410z" />
<glyph unicode="," horiz-adv-x="336" d="M0 -194l91 341h147l-164 -341h-74z" />
<glyph unicode="-" horiz-adv-x="596" d="M48 483v80h500v-80h-500z" />
<glyph unicode="." horiz-adv-x="269" d="M55 67q0 33 23.5 56t56.5 23q32 0 55.5 -23t23.5 -56t-23.5 -56t-55.5 -23q-33 0 -56.5 23t-23.5 56z" />
<glyph unicode="/" horiz-adv-x="627" d="M-52 0l640 1414h91l-641 -1414h-90z" />
<glyph unicode="0" d="M50 695q0 334 142.5 526.5t343.5 192.5t342.5 -192.5t141.5 -526.5q0 -335 -141.5 -527.5t-342.5 -192.5t-343.5 192.5t-142.5 527.5zM134 695q0 -301 117.5 -468t283.5 -167t283.5 167t117.5 468q0 300 -117.5 467t-283.5 167t-283.5 -167t-117.5 -467z" />
<glyph unicode="1" d="M185 0v80h314v1176l-147 -96l-62 45l288 209v-1334h307v-80h-700z" />
<glyph unicode="2" d="M170 0q555 847 598 922.5t43 144.5q0 34 -8 69q-25 110 -119 169q-67 40 -139 40q-32 0 -64 -7q-108 -25 -167 -119q-33 -52 -40 -103l-82 12q6 67 49 134q80 125 221 157q43 10 84 10q98 0 185 -55q124 -78 156 -219q12 -52 12 -99q0 -83 -47.5 -168.5t-523.5 -807.5 h571v-80h-729z" />
<glyph unicode="3" d="M116 337l80 29q13 -118 98 -203q99 -98 238 -98q141 0 240 98.5t99 239.5q0 140 -96.5 245t-289.5 141l-66 2v79q82 1 134.5 21.5t114 86t61.5 155.5q0 91 -63.5 154t-153.5 63q-89 0 -154 -63q-35 -36 -52 -81l-76 30q19 62 68 109q89 88 214 88q126 0 214 -88.5 t88 -211.5q0 -126 -67 -198t-126 -96q128 -42 212 -132q121 -130 121 -304q0 -175 -123.5 -298.5t-298.5 -123.5q-174 0 -298 124q-98 99 -118 232z" />
<glyph unicode="4" d="M136 364l663 1110v-1031h135v-79h-135v-364h-80v364h-583zM273 443h446v749z" />
<glyph unicode="5" d="M85 186l57 62q75 -111 217 -154q64 -20 125 -20q99 0 193 50q153 81 204 247q20 64 20 126q0 99 -51 193q-81 152 -247 210q-72 25 -157 25q-113 0 -250 -43l-63 55l162 448v29h442v-80h-375l-131 -359q44 14 99 26q56 10 109 10q98 0 187 -31q199 -68 297 -251 q61 -114 61 -233q0 -75 -23 -150q-61 -198 -244 -297q-112 -59 -230 -59q-75 0 -153 24q-159 49 -249 172z" />
<glyph unicode="6" d="M142 373q9 228 130.5 476t334.5 565h106q-247 -361 -416 -727q103 80 238 80q163 0 277.5 -115t114.5 -279q0 -162 -114.5 -277.5t-277.5 -115.5q-162 0 -277.5 115.5t-115.5 277.5zM226 373q0 -128 90.5 -217.5t218.5 -89.5q127 0 217.5 89.5t90.5 217.5t-90.5 218.5 t-217.5 90.5q-128 0 -218.5 -90.5t-90.5 -218.5z" />
<glyph unicode="7" d="M118 1334v80h833q-5 -230 -187 -490t-298 -503q-116 -244 -125 -421h-83q9 212 131 460q121 248 280 481q158 233 192 393h-743z" />
<glyph unicode="8" d="M77 403q0 174 121 304q84 90 211 132q-58 24 -125 96t-67 198q0 123 87.5 209t234.5 87q138 -1 226 -87t88 -209q0 -126 -67.5 -198t-125.5 -96q127 -42 211 -132q121 -130 121 -304q0 -175 -113 -293.5t-344 -118.5t-344.5 118.5t-113.5 293.5zM160 403 q0 -141 89 -234.5t287 -102.5q195 9 284 102.5t89 234.5q0 140 -96 245q-94 102 -278 139q-185 -37 -279 -139q-96 -105 -96 -245zM301 1133q0 -90 61.5 -155.5t172.5 -100.5q110 35 171.5 100.5t61.5 155.5q0 91 -48.5 149t-183.5 67h-2q-135 -9 -184 -67t-49 -149z" />
<glyph unicode="9" d="M142 1041q0 162 114.5 277.5t277.5 115.5q162 0 277.5 -115.5t115.5 -293.5q-9 -212 -130.5 -460t-334.5 -565h-106q247 341 416 727q-103 -80 -238 -80q-163 0 -277.5 115t-114.5 279zM226 1041q0 -128 90.5 -218.5t217.5 -90.5q128 0 218.5 90.5t90.5 218.5 t-90.5 217.5t-218.5 89.5q-127 0 -217.5 -89.5t-90.5 -217.5z" />
<glyph unicode=":" horiz-adv-x="269" d="M55 67q0 33 23.5 56t56.5 23q32 0 55.5 -23t23.5 -56t-23.5 -56t-55.5 -23q-33 0 -56.5 23t-23.5 56zM55 684q0 33 23.5 56t56.5 23q32 0 55.5 -23t23.5 -56t-23.5 -56t-55.5 -23q-33 0 -56.5 23t-23.5 56z" />
<glyph unicode=";" horiz-adv-x="293" d="M0 -194l91 341h147l-164 -341h-74zM79 684q0 33 23.5 56t56.5 23q32 0 55.5 -23t23.5 -56t-23.5 -56t-55.5 -23q-33 0 -56.5 23t-23.5 56z" />
<glyph unicode="&#x3c;" d="M89 772l892 426v-92l-723 -334l723 -334v-92z" />
<glyph unicode="=" d="M85 775v80h900v-80h-900zM89 492v80h892v-80h-892z" />
<glyph unicode="&#x3e;" d="M89 346v92l723 334l-723 334v92l892 -426z" />
<glyph unicode="?" horiz-adv-x="752" d="M52 1089q0 83 16 124q53 127 171 174q59 23 117 23q59 0 117 -23q116 -48 158 -160q21 -56 21 -110q0 -55 -21 -108q-42 -106 -200 -302q-140 -174 -140 -332q0 -20 2 -40h-79q-1 14 -1 27q0 197 148 379q176 217 201 309q10 36 10 69q0 52 -24 96q-39 73 -124 104 q-39 14 -76 14q-47 0 -92 -21q-83 -39 -114 -124q-12 -33 -13 -94zM190 67q0 33 23.5 56t56.5 23q32 0 55.5 -23t23.5 -56t-23.5 -56t-55.5 -23q-33 0 -56.5 23t-23.5 56z" />
<glyph unicode="@" horiz-adv-x="1547" d="M50 630q18 342 241.5 554t521.5 212q334 0 515 -182q169 -172 169 -386q-13 -262 -124 -384q-102 -113 -229 -113q-102 11 -102 82q0 8 2 18q-134 -134 -292 -134q-157 0 -263 113q-99 103 -99 244q11 181 128.5 293t275.5 112q157 0 277 -133l6 118h85l-56 -497v-26 q0 -125 45 -134q88 6 169 98t93 328q0 193 -148 341q-159 158 -457 158q-263 0 -459.5 -187t-212.5 -489q0 -237 164 -409q175 -186 438 -186q180 0 265 51l56 -63q-129 -73 -326 -73q-297 0 -497 212q-186 194 -186 462zM482 659q0 -109 75 -188q80 -86 202 -86 q121 0 212 85q62 60 84 139l8 137q-14 79 -69 138q-82 87 -203 87q-122 0 -212 -86t-97 -226z" />
<glyph unicode="A" horiz-adv-x="1116" d="M-1 0l519 1414h82l513 -1414h-84l-226 622h-489l-230 -622h-85zM343 701h431l-215 593z" />
<glyph unicode="B" horiz-adv-x="1033" d="M112 0v1414h422q121 0 205.5 -85t84.5 -205t-85 -205q-18 -19 -36 -32q78 -33 143 -99q135 -135 135 -327q0 -191 -135 -326q-113 -113 -275 -135h-459zM192 80h327q157 0 268 111.5t111 269.5t-111 270t-268 112h-327v-763zM192 923h360q87 9 130 52q61 61 61 149 q0 87 -61.5 149t-148.5 62h-341v-412z" />
<glyph unicode="C" horiz-adv-x="1347" d="M74 707q0 299 211.5 511.5t512.5 212.5q280 0 487 -189l-61 -54q-182 161 -426 161q-266 0 -454.5 -188t-188.5 -454q0 -267 188.5 -455t454.5 -188q244 0 426 161l61 -54q-207 -188 -487 -188q-301 0 -512.5 211.5t-211.5 512.5z" />
<glyph unicode="D" horiz-adv-x="1189" d="M112 0v1414h262q349 -2 541 -195q212 -213 212 -512q0 -301 -212 -513q-192 -192 -541 -194h-262zM192 82h181q305 0 481 170q188 188 188 455q0 266 -188 455q-176 169 -481 169h-181v-1249z" />
<glyph unicode="E" horiz-adv-x="931" d="M112 0v1414h707v-80h-627v-587h627v-80h-627v-587h627v-80h-707z" />
<glyph unicode="F" horiz-adv-x="783" d="M112 0v1414h619v-80h-539v-587h539v-80h-539v-667h-80z" />
<glyph unicode="G" horiz-adv-x="1359" d="M74 707q0 299 211.5 511.5t512.5 212.5q280 0 487 -189l-61 -54q-182 161 -426 161q-266 0 -454.5 -188t-188.5 -454q0 -267 188.5 -455t454.5 -188q228 0 402 140v431h79v-459q-201 -193 -481 -193q-301 0 -512.5 211.5t-211.5 512.5z" />
<glyph unicode="H" horiz-adv-x="1072" d="M94 0v1414h80v-667h724v667h80v-1414h-80v667h-724v-667h-80z" />
<glyph unicode="I" horiz-adv-x="324" d="M122 0v1414h80v-1414h-80z" />
<glyph unicode="J" horiz-adv-x="306" d="M-61 -202q73 0 124 50q49 49 49 135v1431h80v-1441q0 -108 -73 -178t-180 -70v73z" />
<glyph unicode="K" horiz-adv-x="999" d="M112 0v1414h80v-677l473 677h97l-367 -531l618 -883h-97l-572 817l-152 -218v-599h-80z" />
<glyph unicode="L" horiz-adv-x="783" d="M112 0v1414h80v-1334h539v-80h-619z" />
<glyph unicode="M" horiz-adv-x="1442" d="M94 0v1414h116l512 -670l511 670h116v-1414h-80v1328l-547 -717l-548 717v-1328h-80z" />
<glyph unicode="N" horiz-adv-x="1339" d="M109 0v1414h101l940 -1317v1317h80v-1414h-123l-918 1286v-1286h-80z" />
<glyph unicode="O" horiz-adv-x="1575" d="M62 709q0 300 212.5 512.5t512.5 212.5q301 0 513.5 -212.5t212.5 -512.5q0 -301 -212.5 -513.5t-513.5 -212.5q-300 0 -512.5 212.5t-212.5 513.5zM143 709q0 -267 189 -456t455 -189q267 0 456 189t189 456q0 266 -189 455t-456 189q-266 0 -455 -189t-189 -455z" />
<glyph unicode="P" horiz-adv-x="959" d="M112 0v1414h371q162 -22 275 -135q135 -136 135 -326q0 -192 -135 -327.5t-326 -135.5h-240v-490h-80zM192 571h240q157 0 269 111.5t112 270.5q0 158 -112 269t-269 111h-240v-762z" />
<glyph unicode="Q" horiz-adv-x="1575" d="M62 709q0 300 212.5 512.5t512.5 212.5q301 0 513.5 -212.5t212.5 -512.5q0 -301 -212 -513q-154 -154 -353 -196q74 -20 183 -89q74 -40 152 -51q107 3 117 120h80q-23 -172 -178 -184q-127 0 -238 67q-124 65 -196 70q-67 -5 -100 -35t-44.5 -71t-12.5 -51h-80 q27 175 148 207q-295 3 -504 213q-213 212 -213 513zM143 709q0 -267 189 -456t455 -189q267 0 456 189t189 456q0 266 -189 455t-456 189q-266 0 -455 -189t-189 -455z" />
<glyph unicode="R" horiz-adv-x="959" d="M112 0v1414h371q162 -22 275 -135q135 -136 135 -326q0 -192 -135 -327q-94 -94 -215 -123l326 -503h-98l-315 490h-264v-490h-80zM192 571h240q157 0 269 111.5t112 270.5q0 158 -112 269t-269 111h-240v-762z" />
<glyph unicode="S" horiz-adv-x="942" d="M55 335l75 27q12 -115 98 -200q100 -100 241 -100t241 100t100 241q0 140 -100 240q-88 88 -215 140q-151 50 -238.5 137.5t-87.5 212.5q0 122 87.5 210t212.5 88q123 0 212 -88q48 -47 67 -105l-72 -28q-16 43 -52 79q-64 64 -155 64t-155.5 -64t-64.5 -156 q0 -91 64 -156q60 -59 166 -108q170 -55 286 -171q122 -122 122 -295q0 -174 -122.5 -297t-295.5 -123q-174 0 -296 124q-99 98 -118 228z" />
<glyph unicode="T" horiz-adv-x="859" d="M32 1334v80h795v-80h-358v-1334h-79v1334h-358z" />
<glyph unicode="U" horiz-adv-x="1147" d="M112 449v965h80v-965q0 -157 112 -269t270 -112t269.5 112t111.5 269v965h80v-1016q-22 -162 -135 -275q-135 -135 -326 -135q-192 0 -327 135t-135 326z" />
<glyph unicode="V" horiz-adv-x="1065" d="M0 1414h84l449 -1270l448 1270h84l-508 -1414h-49z" />
<glyph unicode="W" horiz-adv-x="1602" d="M0 1414h81l346 -1285l351 910h46l352 -910l345 1285h81l-380 -1414h-80l-341 894l-341 -894h-80z" />
<glyph unicode="X" horiz-adv-x="1018" d="M15 0l448 777l-368 637h91l322 -559l323 559h91l-369 -637l450 -777h-91l-404 698l-403 -698h-90z" />
<glyph unicode="Y" horiz-adv-x="1116" d="M32 1414h91l435 -754l435 754h91l-486 -842v-572h-80v572z" />
<glyph unicode="Z" horiz-adv-x="1075" d="M84 0l770 1334h-670v80h807l-771 -1334h841v-80h-977z" />
<glyph unicode="[" horiz-adv-x="384" d="M55 -119v1665h274v-79h-194v-1507h194v-79h-274z" />
<glyph unicode="\" horiz-adv-x="627" d="M-52 1414h91l640 -1414h-90z" />
<glyph unicode="]" horiz-adv-x="384" d="M55 -40h194v1507h-194v79h274v-1665h-274v79z" />
<glyph unicode="^" horiz-adv-x="833" d="M98 942l273 472h92l272 -472h-92l-226 391l-226 -391h-93z" />
<glyph unicode="_" horiz-adv-x="794" d="M-45 -27h884v-79h-884v79z" />
<glyph unicode="`" horiz-adv-x="441" d="M75 1137h147l144 -165h-75z" />
<glyph unicode="a" horiz-adv-x="1122" d="M74 460q0 202 142.5 344t342.5 142q202 0 344 -142q27 -28 50 -59v123h80v-868h-80v177q-23 -31 -50 -59q-142 -143 -344 -143q-200 0 -342.5 142.5t-142.5 342.5zM158 460q0 -166 117.5 -283t283.5 -117t284 118q88 88 110 204v157q-22 117 -110 205q-118 118 -284 118 t-283.5 -118t-117.5 -284z" />
<glyph unicode="b" horiz-adv-x="1131" d="M99 0v1414h80v-668q22 30 50 58q142 142 343 142t343 -142t142 -344q0 -200 -142 -342.5t-343 -142.5t-343 143q-28 28 -50 58v-176h-80zM179 377q22 -113 109 -199q118 -118 284 -118t283.5 117t117.5 283t-117.5 284t-283.5 118t-284 -118q-87 -87 -109 -201v-166z" />
<glyph unicode="c" horiz-adv-x="985" d="M52 461q0 201 142.5 343t342.5 142q202 0 344 -142q29 -29 52 -60l-84 -31q-13 16 -28 32q-118 117 -284 117q-165 0 -282.5 -117.5t-117.5 -283.5t117.5 -283.5t282.5 -117.5q166 0 284 118q15 15 28 31l84 -31q-23 -31 -52 -60q-142 -143 -344 -143 q-200 0 -342.5 142.5t-142.5 343.5z" />
<glyph unicode="d" horiz-adv-x="1122" d="M74 460q0 202 142.5 344t342.5 142q202 0 344 -142q27 -28 50 -59v669h80v-1414h-80v177q-23 -31 -50 -59q-142 -143 -344 -143q-200 0 -342.5 142.5t-142.5 342.5zM158 460q0 -166 117.5 -283t283.5 -117t284 118q88 88 110 204v157q-22 117 -110 205q-118 118 -284 118 t-283.5 -118t-117.5 -284z" />
<glyph unicode="e" horiz-adv-x="1042" d="M52 460q0 202 142.5 344t342.5 142q202 0 344 -142q125 -126 125 -299h-867q-3 -21 -3 -45q0 -166 117.5 -283t283.5 -117t284 118q20 20 38 42l85 -30q-15 -25 -63 -72q-142 -143 -344 -143q-200 0 -342.5 142.5t-142.5 342.5zM154 586h762q-28 91 -95 158 q-118 118 -284 118t-284 -118q-70 -71 -99 -158z" />
<glyph unicode="f" horiz-adv-x="383" d="M22 788v80h88v235q6 98 75 169q73 67 167 67q50 0 105 -19l-25 -71q-37 16 -72 16q-62 0 -118 -50q-49 -49 -52 -118v-229h177v-80h-177v-788h-80v788h-88z" />
<glyph unicode="g" horiz-adv-x="1083" d="M52 460q0 202 142.5 343.5t342.5 141.5q202 0 344 -141q27 -28 50 -59v123h80v-674q0 -196 -139 -334q-142 -143 -343 -143t-344 143q-29 29 -52 60l84 31q13 -16 29 -31q117 -118 283 -118q165 0 283 118q107 107 117 252q-23 -28 -48 -54q-142 -143 -344 -143 q-200 0 -342.5 142.5t-142.5 342.5zM136 460q0 -166 117.5 -283.5t283.5 -117.5t284 118q85 85 109 199v167q-23 114 -109 201q-118 118 -284 118t-283.5 -118t-117.5 -284z" />
<glyph unicode="h" horiz-adv-x="859" d="M94 0v1414h80v-591q100 97 242 97q153 0 249.5 -96.5t99.5 -242.5v-581h-80v573q0 111 -80 189t-189 78q-110 0 -189 -77q-36 -35 -53 -73v-690h-80z" />
<glyph unicode="i" horiz-adv-x="317" d="M79 1097q0 32 23.5 55t56.5 23q32 0 55.5 -23t23.5 -55q0 -34 -23.5 -57t-55.5 -23q-33 0 -56.5 23t-23.5 57zM119 0v868h79v-868h-79z" />
<glyph unicode="j" horiz-adv-x="284" d="M-11 -122q107 12 107 120v870h79v-868q0 -179 -186 -194v72zM56 1097q0 32 23.5 55t56.5 23q32 0 55.5 -23t23.5 -55q0 -34 -23.5 -57t-55.5 -23q-33 0 -56.5 23t-23.5 57z" />
<glyph unicode="k" horiz-adv-x="635" d="M99 0v1237h80v-667l241 298h102l-214 -265l341 -603h-98l-295 539l-77 -96v-443h-80z" />
<glyph unicode="l" horiz-adv-x="300" d="M110 0v1414h80v-1414h-80z" />
<glyph unicode="m" horiz-adv-x="1148" d="M99 0v868h80v-21q74 72 177 72q107 0 182 -75q20 -20 35 -44q16 23 37 44q75 75 182 75t182 -75q71 -73 75 -174v-670h-80v670h1q-3 69 -52 117q-53 52 -126 52q-74 0 -126.5 -52t-52.5 -130v-657h-79v670h1q-4 69 -53 117q-53 52 -126 52t-125 -52q-46 -45 -52 -110 v-677h-80z" />
<glyph unicode="n" horiz-adv-x="879" d="M99 0v868h80v-56q108 108 252 108q154 0 250.5 -96.5t98.5 -242.5v-581h-79v573q0 111 -80 189t-190 78q-109 0 -189 -77q-43 -43 -63 -89v-674h-80z" />
<glyph unicode="o" horiz-adv-x="1114" d="M72 460q0 202 142.5 344t342.5 142q202 0 343.5 -142t141.5 -344q0 -200 -141.5 -342.5t-343.5 -142.5q-200 0 -342.5 142.5t-142.5 342.5zM156 460q0 -166 117.5 -283t283.5 -117t283.5 117t117.5 283t-117.5 284t-283.5 118t-283.5 -118t-117.5 -284z" />
<glyph unicode="p" horiz-adv-x="1110" d="M92 -331v1199h80v-122q22 30 50 58q142 141 343 141t343 -141.5t142 -343.5q0 -200 -142 -342.5t-343 -142.5t-343 143q-28 28 -50 58v-507h-80zM172 377q22 -114 109 -200q118 -118 284 -118t283.5 117.5t117.5 283.5t-117.5 284t-283.5 118t-284 -118 q-87 -87 -109 -201v-166z" />
<glyph unicode="q" horiz-adv-x="1107" d="M60 460q0 202 142.5 343.5t342.5 141.5q202 0 344 -141q27 -28 50 -59v123h80v-1199h-80v508q-23 -31 -50 -59q-142 -143 -344 -143q-200 0 -342.5 142.5t-142.5 342.5zM144 460q0 -166 117.5 -283.5t283.5 -117.5t284 118q88 88 110 205v157q-22 117 -110 205 q-118 118 -284 118t-283.5 -118t-117.5 -284z" />
<glyph unicode="r" horiz-adv-x="406" d="M77 0v868h80v-188q50 131 205 195l44 -77q-85 -13 -167 -108t-82 -192v-498h-80z" />
<glyph unicode="s" horiz-adv-x="644" d="M55 240l79 20q0 -77 52.5 -129.5t125.5 -52.5t126 52.5t53 127.5q0 73 -53 125q-28 28 -114 83q-101 55 -140 94q-61 61 -61 147t61 147.5t147 61.5t143 -57q55 -55 55 -126v-4l-69 -28q-9 67 -42 101t-87 34q-53 0 -91 -38t-38 -91t38 -91q22 -23 93 -68 q113 -61 161 -109q75 -76 75 -181q0 -108 -75 -183.5t-182 -75.5t-182 75.5t-75 165.5z" />
<glyph unicode="t" horiz-adv-x="497" d="M32 788v80h177v369h79v-369h177v-80h-177v-788h-79v788h-177z" />
<glyph unicode="u" horiz-adv-x="880" d="M87 327v542h80v-535q0 -110 80 -188q79 -79 197 -79q110 0 189.5 78.5t79.5 188.5v535h80v-542q-3 -147 -99 -243t-249 -96q-163 0 -259 96t-99 243z" />
<glyph unicode="v" horiz-adv-x="814" d="M0 868h93l312 -723l316 723h93l-388 -868h-42z" />
<glyph unicode="w" horiz-adv-x="1094" d="M0 868h91l230 -713l204 565h45l204 -565l229 713h91l-295 -868h-50l-202 566l-202 -566h-51z" />
<glyph unicode="x" horiz-adv-x="662" d="M0 0l285 459l-255 409h93l208 -335l208 335h93l-255 -409l285 -459h-92l-239 384l-239 -384h-92z" />
<glyph unicode="y" horiz-adv-x="779" d="M15 868h89l285 -606l286 606h89l-559 -1198h-89l229 491z" />
<glyph unicode="z" horiz-adv-x="743" d="M62 0l448 776h-448v79h585l-449 -775h483v-80h-619z" />
<glyph unicode="{" horiz-adv-x="516" d="M90 712v12q141 29 141 325v32q0 442 230 468v-60q-156 -41 -156 -424v-42q0 -228 -92 -305q92 -77 92 -305v-42q0 -383 156 -424v-60q-230 26 -230 468v32q0 296 -141 325z" />
<glyph unicode="|" horiz-adv-x="480" d="M200 -126v1540h80v-1540h-80z" />
<glyph unicode="}" horiz-adv-x="516" d="M55 -53q156 41 156 424v42q0 228 92 305q-92 77 -92 305v42q0 383 -156 424v60q230 -26 230 -468v-32q0 -296 141 -325v-12q-141 -29 -141 -325v-32q0 -442 -230 -468v60z" />
<glyph unicode="~" horiz-adv-x="1057" d="M75 625q2 42 19 85q41 98 139 131q22 7 49 7q93 0 246 -87q166 -97 242 -97q13 0 23 3q68 20 96 88q13 34 13 69l80 -13q-3 -42 -20 -86q-41 -98 -138 -130q-22 -7 -49 -7q-93 0 -246 87q-168 96 -242 96q-12 0 -23 -2q-68 -21 -95 -89q-14 -34 -14 -68z" />
<glyph unicode="&#xa1;" horiz-adv-x="269" d="M49 1347q0 33 23.5 56t55.5 23q33 0 56.5 -23t23.5 -56t-23.5 -56t-56.5 -23q-32 0 -55.5 23t-23.5 56zM90 0v1170h80v-1170h-80z" />
<glyph unicode="&#xa2;" d="M176 878q0 163 116 279q88 88 204 109v143h79v-137q159 -1 273 -115q23 -24 46 -54l-77 -29q-13 16 -24 28q-91 90 -218 92v-631q127 2 218 93q11 11 24 27l77 -28q-23 -31 -46 -55q-114 -114 -273 -116v-136h-79v142q-116 21 -204 110q-116 115 -116 278zM255 878 q0 -130 92 -222q65 -66 149 -85v615q-84 -20 -149 -84q-92 -93 -92 -224z" />
<glyph unicode="&#xa3;" horiz-adv-x="892" d="M70 490v80h184q-23 84 -66 167q-98 159 -112 337q0 122 81 220q101 108 252 115q11 1 23 1q135 0 225 -75l-32 -72q-70 67 -188 67h-16q-129 -5 -199 -89q-62 -75 -62 -167q10 -127 70 -253q76 -122 107 -251h175v-80h-160q5 -40 5 -82q0 -153 -147 -328h612v-80h-719v78 q175 171 175 323q0 45 -7 89h-201z" />
<glyph unicode="&#xa4;" d="M132 365l123 123q-79 96 -79 224t79 223l-123 123l57 57l122 -123q96 78 224 78t223 -78l123 123l57 -57l-123 -123q79 -95 79 -223t-79 -224l123 -123l-57 -56l-123 123q-95 -79 -223 -79t-224 79l-122 -123zM256 712q0 -96 55 -167q12 -16 27 -30q14 -15 30 -27 q71 -55 167 -55q95 0 167 55q16 12 31 27q14 14 25 30q56 71 56 167q0 95 -56 167q-11 16 -25 31q-15 14 -31 25q-72 56 -167 56q-96 0 -167 -56q-16 -11 -30 -25q-15 -15 -27 -31q-55 -72 -55 -167z" />
<glyph unicode="&#xa5;" d="M9 1414h91l430 -747h9l431 747h91l-432 -747h260v-79h-306l-8 -16v-90h314v-80h-314v-402h-80v402h-313v80h313v90l-9 16h-304v79h258z" />
<glyph unicode="&#xa6;" horiz-adv-x="480" d="M200 -131v662h80v-662h-80zM200 752v662h80v-662h-80z" />
<glyph unicode="&#xa7;" d="M112 796q0 174 79 252q31 32 54 45q-5 26 -5 54q0 122 87.5 205t212.5 83q123 0 212 -77q48 -47 67 -105l-72 -29q-16 44 -52 80q-64 63 -155 63t-155.5 -64t-64.5 -156q0 -91 64 -155q60 -59 166 -109q170 -55 286 -170q122 -122 122 -295q0 -175 -78 -253 q-32 -32 -54 -45q4 -26 4 -54q0 -122 -87.5 -205t-211.5 -83t-212 78q-49 46 -67 105l71 28q16 -43 52 -80q65 -63 156 -63t155.5 64t64.5 156q0 91 -65 155q-60 60 -166 109q-169 55 -285 171q-123 122 -123 295zM190 796q0 -141 100 -241q87 -87 214 -139 q151 -51 239 -138q38 -38 59 -83q10 12 23 25q56 56 56 198q0 140 -100 240q-88 87 -215 139q-151 51 -238 138q-38 38 -60 83q-9 -12 -23 -25q-55 -56 -55 -197z" />
<glyph unicode="&#xa8;" horiz-adv-x="574" d="M75 1057q0 32 23.5 55t56.5 23q32 0 55.5 -23t23.5 -55q0 -34 -23.5 -57t-55.5 -23q-33 0 -56.5 23t-23.5 57zM340 1057q0 32 23.5 55t56.5 23q32 0 55.5 -23t23.5 -55q0 -34 -23.5 -57t-55.5 -23q-33 0 -56.5 23t-23.5 57z" />
<glyph unicode="&#xa9;" horiz-adv-x="1217" d="M50 545q0 231 163.5 395t394.5 164q232 0 395.5 -164t163.5 -395t-163.5 -394.5t-395.5 -163.5q-231 0 -394.5 163.5t-163.5 394.5zM126 545q0 -200 141.5 -341t340.5 -141q200 0 341.5 141t141.5 341t-141.5 341.5t-341.5 141.5q-199 0 -340.5 -141.5t-141.5 -341.5z M332 546q0 124 88 211.5t212 87.5t212 -87q17 -19 41 -51l-73 -27q-13 15 -22 25q-66 65 -158 65q-93 0 -159 -65.5t-66 -158.5t66 -159t159 -66q92 0 158 66q9 9 22 25l73 -28q-24 -32 -41 -50q-88 -88 -212 -88t-212 88t-88 212z" />
<glyph unicode="&#xaa;" horiz-adv-x="554" d="M33 1165q0 98 69.5 167t166.5 69q98 0 167 -69q13 -14 24 -29v60h60v-422h-60v86q-11 -15 -24 -28q-69 -70 -167 -70q-97 0 -166.5 69.5t-69.5 166.5zM95 1165q0 -72 51 -122.5t123 -50.5q71 0 123 51q38 38 47 88v68q-9 51 -47 89q-52 51 -123 51q-72 0 -123 -51 t-51 -123z" />
<glyph unicode="&#xab;" horiz-adv-x="816" d="M55 425l396 425v-113l-291 -312l291 -311v-114zM359 425l402 425v-113l-290 -312l290 -311v-114z" />
<glyph unicode="&#xac;" d="M139 631v80h800v-419h-80v339h-720z" />
<glyph unicode="&#xad;" horiz-adv-x="596" d="M48 483v80h500v-80h-500z" />
<glyph unicode="&#xae;" horiz-adv-x="1175" d="M50 858q0 223 157.5 375.5t380.5 152.5q222 0 379.5 -152.5t157.5 -375.5q-30 -293 -230 -317q-17 -3 -34 -3q-177 0 -288 243h-47v-195h-87v526h148q210 -2 221 -162q0 -119 -160 -157q117 -194 225 -194q13 0 25 3q120 25 150 256q0 191 -134.5 326t-325.5 135 t-326 -135t-135 -326t135 -326t431 -135q147 0 295 110v-77q-156 -110 -311 -110q-312 0 -469.5 157.5t-157.5 380.5zM526 851h69q125 0 130 103q0 89 -120 89h-79v-192z" />
<glyph unicode="&#xaf;" horiz-adv-x="671" d="M75 973v80h521v-80h-521z" />
<glyph unicode="&#xb0;" horiz-adv-x="382" d="M44 1210q0 60 43 103.5t104 43.5t104 -43.5t43 -103.5q0 -61 -43 -104t-104 -43t-104 43t-43 104zM109 1210q0 -34 24 -58.5t58 -24.5t58 24.5t24 58.5t-24 58t-58 24t-58 -24t-24 -58z" />
<glyph unicode="&#xb1;" d="M85 0v80h900v-80h-900zM85 633v80h410v410h80v-410h410v-80h-410v-403h-80v403h-410z" />
<glyph unicode="&#xb2;" horiz-adv-x="750" d="M133 589q395 461 395 598q-4 140 -142 141q-92 -5 -122 -61l-77 32q62 94 200 100q230 -5 230 -208q0 -158 -333 -534h333v-68h-484z" />
<glyph unicode="&#xb3;" horiz-adv-x="750" d="M105 802l83 28q10 -80 57 -124q54 -48 129 -48q76 0 130.5 49.5t54.5 124.5q0 73 -54 127t-162 74h-55v67q63 1 90.5 11t61.5 43t34 79q0 47 -33.5 77t-78.5 30t-78 -29q-19 -18 -35 -55l-77 28q15 44 47 73q59 53 143 53t141.5 -53t57.5 -124q0 -113 -129 -168 q84 -7 137 -60q76 -75 76 -173q0 -100 -78.5 -172.5t-192.5 -72.5q-113 0 -193 74q-62 57 -76 141z" />
<glyph unicode="&#xb4;" horiz-adv-x="441" d="M75 972l144 165h147l-217 -165h-74z" />
<glyph unicode="&#xb5;" horiz-adv-x="815" d="M78 -331v1199h80v-646q17 -38 53 -74q79 -76 189 -76q109 0 190 78q51 51 69 115v603h78v-868h-78v98q-4 -4 -9 -10q-97 -96 -250 -96q-142 0 -242 97v-420h-80z" />
<glyph unicode="&#xb6;" d="M77 953q0 191 135 326q113 113 275 135h71v1h434v-79h-78v-1597h-80v1597h-82v-1597h-79v752h-135q-191 0 -326 135t-135 327z" />
<glyph unicode="&#xb7;" horiz-adv-x="245" d="M55 707q0 28 20 47.5t48 19.5q27 0 47 -19.5t20 -47.5t-20 -47.5t-47 -19.5q-28 0 -48 19.5t-20 47.5z" />
<glyph unicode="&#xb8;" horiz-adv-x="464" d="M100 -222l37 40q34 -35 73 -35q10 0 21 3q47 11 47 57v6q-3 43 -99 43q-17 0 -37 -1l52 125h64l-26 -68q92 -7 118 -61q14 -29 14 -56q0 -23 -11 -44q-23 -45 -85 -55q-23 -4 -43 -4q-34 0 -58 11q-39 17 -67 39z" />
<glyph unicode="&#xb9;" horiz-adv-x="750" d="M147 569v68h188v608l-70 -42l-62 41l216 144v-751h184v-68h-456z" />
<glyph unicode="&#xba;" horiz-adv-x="565" d="M33 1165q0 98 69.5 167t166.5 69h26q97 0 166.5 -69t69.5 -167q0 -97 -69.5 -166.5t-166.5 -69.5h-26q-97 0 -166.5 69.5t-69.5 166.5zM95 1165q0 -72 51 -122.5t123 -50.5h26q72 0 123 50.5t51 122.5t-51 123t-123 51h-26q-72 0 -123 -51t-51 -123z" />
<glyph unicode="&#xbb;" horiz-adv-x="816" d="M55 0v114l289 311l-289 312v113l402 -425zM365 0v114l290 311l-290 312v113l396 -425z" />
<glyph unicode="&#xbc;" horiz-adv-x="1667" d="M147 569v68h188v608l-70 -42l-62 41l216 144v-751h184v-68h-456zM350 0l1013 1414h104l-1015 -1414h-102zM1030 201l443 679v-612h81v-67h-81v-201h-84v201h-359zM1167 268h222v342z" />
<glyph unicode="&#xbd;" horiz-adv-x="1667" d="M147 569v68h188v608l-70 -42l-62 41l216 144v-751h184v-68h-456zM350 0l1013 1414h104l-1015 -1414h-102zM1050 0q395 461 395 598q-4 140 -142 141q-92 -5 -122 -61l-77 32q62 94 200 100q230 -5 230 -208q0 -158 -333 -534h333v-68h-484z" />
<glyph unicode="&#xbe;" horiz-adv-x="1667" d="M105 802l83 28q10 -80 57 -124q54 -48 129 -48q76 0 130.5 49.5t54.5 124.5q0 73 -54 127t-162 74h-55v67q63 1 90.5 11t61.5 43t34 79q0 47 -33.5 77t-78.5 30t-78 -29q-19 -18 -35 -55l-77 28q15 44 47 73q59 53 143 53t141.5 -53t57.5 -124q0 -113 -129 -168 q84 -7 137 -60q76 -75 76 -173q0 -100 -78.5 -172.5t-192.5 -72.5q-113 0 -193 74q-62 57 -76 141zM350 0l1013 1414h104l-1015 -1414h-102zM1030 201l443 679v-612h81v-67h-81v-201h-84v201h-359zM1167 268h222v342z" />
<glyph unicode="&#xbf;" horiz-adv-x="752" d="M50 281q0 55 21 108q42 106 200 302q140 174 140 332q0 20 -2 40h79q1 -14 1 -27q0 -197 -148 -379q-176 -217 -201 -309q-10 -36 -10 -69q0 -52 24 -96q39 -73 124 -104q39 -14 76 -14q47 0 92 21q83 39 114 124q14 39 14 76q0 9 -1 18l77 5q2 -15 2 -31q0 -46 -18 -93 q-53 -127 -171 -174q-59 -23 -117 -23q-59 0 -117 23q-116 48 -158 160q-21 56 -21 110zM353 1331q0 33 23.5 56t55.5 23q33 0 56.5 -23t23.5 -56t-23.5 -56t-56.5 -23q-32 0 -55.5 23t-23.5 56z" />
<glyph unicode="&#xc0;" horiz-adv-x="1116" d="M-1 0l519 1414h82l513 -1414h-84l-226 622h-489l-230 -622h-85zM343 701h431l-215 593zM362 1683h147l144 -165h-75z" />
<glyph unicode="&#xc1;" horiz-adv-x="1116" d="M-1 0l519 1414h82l513 -1414h-84l-226 622h-489l-230 -622h-85zM343 701h431l-215 593zM459 1518l144 165h147l-217 -165h-74z" />
<glyph unicode="&#xc2;" horiz-adv-x="1116" d="M-1 0l519 1414h82l513 -1414h-84l-226 622h-489l-230 -622h-85zM324 1519l228 187l237 -187h-92l-145 106l-135 -106h-93zM343 701h431l-215 593z" />
<glyph unicode="&#xc3;" horiz-adv-x="1116" d="M-1 0l519 1414h82l513 -1414h-84l-226 622h-489l-230 -622h-85zM343 701h431l-215 593zM365 1540q1 37 9 60q18 55 63 74q11 5 25 5q41 0 104 -46q59 -43 82 -43h4q18 7 26 32q4 14 4 49l66 -13q-2 -37 -10 -61q-18 -55 -62 -74q-12 -4 -25 -4q-41 0 -105 45 q-59 44 -82 44q-3 0 -4 -1q-17 -6 -25 -32q-5 -14 -5 -49z" />
<glyph unicode="&#xc4;" horiz-adv-x="1116" d="M-1 0l519 1414h82l513 -1414h-84l-226 622h-489l-230 -622h-85zM343 701h431l-215 593zM344 1603q0 32 23.5 55t56.5 23q32 0 55.5 -23t23.5 -55q0 -34 -23.5 -57t-55.5 -23q-33 0 -56.5 23t-23.5 57zM609 1603q0 32 23.5 55t56.5 23q32 0 55.5 -23t23.5 -55 q0 -34 -23.5 -57t-55.5 -23q-33 0 -56.5 23t-23.5 57z" />
<glyph unicode="&#xc5;" horiz-adv-x="1116" d="M-1 0l519 1414q-20 5 -42 27q-33 33 -33 80t33 80t80 33t80 -33t33 -80t-33 -80q-22 -22 -36 -27l513 -1414h-84l-226 622h-489l-230 -622h-85zM343 701h431l-215 593zM505 1521q0 -21 15 -36.5t36 -15.5t36 15.5t15 36.5q0 22 -15 37t-36 15t-36 -15t-15 -37z" />
<glyph unicode="&#xc6;" horiz-adv-x="1443" d="M-1 0l615 1414h717v-80h-627v-587h627v-80h-627v-587h627v-80h-706v542h-300l-241 -542h-85zM354 621h271v629z" />
<glyph unicode="&#xc7;" horiz-adv-x="1347" d="M74 707q0 299 211.5 511.5t512.5 212.5q280 0 487 -189l-61 -54q-182 161 -426 161q-266 0 -454.5 -188t-188.5 -454q0 -267 188.5 -455t454.5 -188q244 0 426 161l61 -54q-207 -188 -487 -188h-5l-13 -35q92 -7 118 -61q14 -29 14 -56q0 -23 -11 -44q-23 -45 -85 -55 q-23 -4 -43 -4q-34 0 -58 11q-39 17 -67 39l37 40q34 -35 73 -35q10 0 21 3q47 11 47 57v6q-3 43 -99 43q-17 0 -37 -1l39 95q-257 22 -443 209q-212 211 -212 512z" />
<glyph unicode="&#xc8;" horiz-adv-x="931" d="M112 0v1414h707v-80h-627v-587h627v-80h-627v-587h627v-80h-707zM272 1683h147l144 -165h-75z" />
<glyph unicode="&#xc9;" horiz-adv-x="931" d="M112 0v1414h707v-80h-627v-587h627v-80h-627v-587h627v-80h-707zM369 1518l144 165h147l-217 -165h-74z" />
<glyph unicode="&#xca;" horiz-adv-x="931" d="M112 0v1414h707v-80h-627v-587h627v-80h-627v-587h627v-80h-707zM233 1519l228 187l237 -187h-92l-145 106l-135 -106h-93z" />
<glyph unicode="&#xcb;" horiz-adv-x="931" d="M112 0v1414h707v-80h-627v-587h627v-80h-627v-587h627v-80h-707zM254 1603q0 32 23.5 55t56.5 23q32 0 55.5 -23t23.5 -55q0 -34 -23.5 -57t-55.5 -23q-33 0 -56.5 23t-23.5 57zM519 1603q0 32 23.5 55t56.5 23q32 0 55.5 -23t23.5 -55q0 -34 -23.5 -57t-55.5 -23 q-33 0 -56.5 23t-23.5 57z" />
<glyph unicode="&#xcc;" horiz-adv-x="324" d="M-32 1683h147l144 -165h-75zM122 0v1414h80v-1414h-80z" />
<glyph unicode="&#xcd;" horiz-adv-x="324" d="M65 1518l144 165h147l-217 -165h-74zM122 0v1414h80v-1414h-80z" />
<glyph unicode="&#xce;" horiz-adv-x="324" d="M-90 1519l228 187l237 -187h-92l-145 106l-135 -106h-93zM103 0v1414h80v-1414h-80z" />
<glyph unicode="&#xcf;" horiz-adv-x="324" d="M-50 1603q0 32 23.5 55t56.5 23q32 0 55.5 -23t23.5 -55q0 -34 -23.5 -57t-55.5 -23q-33 0 -56.5 23t-23.5 57zM122 0v1414h80v-1414h-80zM215 1603q0 32 23.5 55t56.5 23q32 0 55.5 -23t23.5 -55q0 -34 -23.5 -57t-55.5 -23q-33 0 -56.5 23t-23.5 57z" />
<glyph unicode="&#xd0;" horiz-adv-x="1240" d="M20 667v80h128v667h262q349 -2 541 -195q212 -213 212 -512q0 -301 -212 -513q-192 -192 -541 -194h-262v667h-128zM228 82h181q305 0 481 170q188 188 188 455q0 266 -188 455q-176 169 -481 169h-181v-584h492v-80h-492v-585z" />
<glyph unicode="&#xd1;" horiz-adv-x="1339" d="M109 0v1414h101l940 -1317v1317h80v-1414h-123l-918 1286v-1286h-80zM478 1540q1 37 9 60q18 55 63 74q11 5 25 5q41 0 104 -46q59 -43 82 -43h4q18 7 26 32q4 14 4 49l66 -13q-2 -37 -10 -61q-18 -55 -62 -74q-12 -4 -25 -4q-41 0 -105 45q-59 44 -82 44q-3 0 -4 -1 q-17 -6 -25 -32q-5 -14 -5 -49z" />
<glyph unicode="&#xd2;" horiz-adv-x="1575" d="M62 709q0 300 212.5 512.5t512.5 212.5q301 0 513.5 -212.5t212.5 -512.5q0 -301 -212.5 -513.5t-513.5 -212.5q-300 0 -512.5 212.5t-212.5 513.5zM143 709q0 -267 189 -456t455 -189q267 0 456 189t189 456q0 266 -189 455t-456 189q-266 0 -455 -189t-189 -455z M594 1683h147l144 -165h-75z" />
<glyph unicode="&#xd3;" horiz-adv-x="1575" d="M62 709q0 300 212.5 512.5t512.5 212.5q301 0 513.5 -212.5t212.5 -512.5q0 -301 -212.5 -513.5t-513.5 -212.5q-300 0 -512.5 212.5t-212.5 513.5zM143 709q0 -267 189 -456t455 -189q267 0 456 189t189 456q0 266 -189 455t-456 189q-266 0 -455 -189t-189 -455z M691 1518l144 165h147l-217 -165h-74z" />
<glyph unicode="&#xd4;" horiz-adv-x="1575" d="M62 709q0 300 212.5 512.5t512.5 212.5q301 0 513.5 -212.5t212.5 -512.5q0 -301 -212.5 -513.5t-513.5 -212.5q-300 0 -512.5 212.5t-212.5 513.5zM143 709q0 -267 189 -456t455 -189q267 0 456 189t189 456q0 266 -189 455t-456 189q-266 0 -455 -189t-189 -455z M555 1519l228 187l237 -187h-92l-145 106l-135 -106h-93z" />
<glyph unicode="&#xd5;" horiz-adv-x="1575" d="M62 709q0 300 212.5 512.5t512.5 212.5q301 0 513.5 -212.5t212.5 -512.5q0 -301 -212.5 -513.5t-513.5 -212.5q-300 0 -512.5 212.5t-212.5 513.5zM143 709q0 -267 189 -456t455 -189q267 0 456 189t189 456q0 266 -189 455t-456 189q-266 0 -455 -189t-189 -455z M596 1540q1 37 9 60q18 55 63 74q11 5 25 5q41 0 104 -46q59 -43 82 -43h4q18 7 26 32q4 14 4 49l66 -13q-2 -37 -10 -61q-18 -55 -62 -74q-12 -4 -25 -4q-41 0 -105 45q-59 44 -82 44q-3 0 -4 -1q-17 -6 -25 -32q-5 -14 -5 -49z" />
<glyph unicode="&#xd6;" horiz-adv-x="1575" d="M62 709q0 300 212.5 512.5t512.5 212.5q301 0 513.5 -212.5t212.5 -512.5q0 -301 -212.5 -513.5t-513.5 -212.5q-300 0 -512.5 212.5t-212.5 513.5zM143 709q0 -267 189 -456t455 -189q267 0 456 189t189 456q0 266 -189 455t-456 189q-266 0 -455 -189t-189 -455z M576 1603q0 32 23.5 55t56.5 23q32 0 55.5 -23t23.5 -55q0 -34 -23.5 -57t-55.5 -23q-33 0 -56.5 23t-23.5 57zM841 1603q0 32 23.5 55t56.5 23q32 0 55.5 -23t23.5 -55q0 -34 -23.5 -57t-55.5 -23q-33 0 -56.5 23t-23.5 57z" />
<glyph unicode="&#xd7;" d="M188 383l290 290l-290 290l57 56l289 -289l290 289l57 -56l-290 -290l290 -290l-57 -56l-290 289l-289 -289z" />
<glyph unicode="&#xd8;" horiz-adv-x="1647" d="M98 709q0 300 212.5 512.5t512.5 212.5q146 0 271 -50l76 162l72 -33l-76 -163q91 -49 171 -128q212 -213 212 -513q0 -301 -212.5 -513.5t-513.5 -212.5q-145 0 -270 51l-76 -163l-72 34l76 162q-91 50 -170 129q-213 212 -213 513zM179 709q0 -267 189 -456 q68 -68 147 -113l544 1170q-108 43 -236 43q-266 0 -455 -189t-189 -455zM587 107q109 -43 236 -43q267 0 456 189t189 456q0 266 -189 456q-69 68 -147 111z" />
<glyph unicode="&#xd9;" horiz-adv-x="1147" d="M112 449v965h80v-965q0 -157 112 -269t270 -112t269.5 112t111.5 269v965h80v-1016q-22 -162 -135 -275q-135 -135 -326 -135q-192 0 -327 135t-135 326zM380 1683h147l144 -165h-75z" />
<glyph unicode="&#xda;" horiz-adv-x="1147" d="M112 449v965h80v-965q0 -157 112 -269t270 -112t269.5 112t111.5 269v965h80v-1016q-22 -162 -135 -275q-135 -135 -326 -135q-192 0 -327 135t-135 326zM477 1518l144 165h147l-217 -165h-74z" />
<glyph unicode="&#xdb;" horiz-adv-x="1147" d="M112 449v965h80v-965q0 -157 112 -269t270 -112t269.5 112t111.5 269v965h80v-1016q-22 -162 -135 -275q-135 -135 -326 -135q-192 0 -327 135t-135 326zM341 1519l228 187l237 -187h-92l-145 106l-135 -106h-93z" />
<glyph unicode="&#xdc;" horiz-adv-x="1147" d="M112 449v965h80v-965q0 -157 112 -269t270 -112t269.5 112t111.5 269v965h80v-1016q-22 -162 -135 -275q-135 -135 -326 -135q-192 0 -327 135t-135 326zM362 1603q0 32 23.5 55t56.5 23q32 0 55.5 -23t23.5 -55q0 -34 -23.5 -57t-55.5 -23q-33 0 -56.5 23t-23.5 57z M627 1603q0 32 23.5 55t56.5 23q32 0 55.5 -23t23.5 -55q0 -34 -23.5 -57t-55.5 -23q-33 0 -56.5 23t-23.5 57z" />
<glyph unicode="&#xdd;" horiz-adv-x="1116" d="M32 1414h91l435 -754l435 754h91l-486 -842v-572h-80v572zM461 1518l144 165h147l-217 -165h-74z" />
<glyph unicode="&#xde;" horiz-adv-x="946" d="M98 0v1414h80v-245h291q162 -22 275 -135q135 -135 135 -326q0 -192 -135 -327t-326 -135h-240v-246h-80zM178 326h240q157 0 269 112t112 270t-112 269.5t-269 111.5h-240v-763z" />
<glyph unicode="&#xdf;" horiz-adv-x="990" d="M110 788v80h88v235q6 98 77 167t215 69q250 -14 251 -236q0 -112 -104 -195q-109 -86 -109 -157q5 -68 204 -163q198 -96 198 -281q0 -158 -90 -238q-90 -81 -197 -81q-147 0 -222 76l57 56q52 -53 165 -53q73 0 141 58q68 57 68 182q-10 153 -204 238t-197 201 q0 115 108 194q103 75 103 167q-1 138 -164 158q-112 0 -164.5 -49.5t-55.5 -118.5v-1097h-80v788h-88z" />
<glyph unicode="&#xe0;" horiz-adv-x="1122" d="M74 460q0 202 142.5 344t342.5 142q202 0 344 -142q27 -28 50 -59v123h80v-868h-80v177q-23 -31 -50 -59q-142 -143 -344 -143q-200 0 -342.5 142.5t-142.5 342.5zM158 460q0 -166 117.5 -283t283.5 -117t284 118q88 88 110 204v157q-22 117 -110 205q-118 118 -284 118 t-283.5 -118t-117.5 -284zM360 1217h147l144 -165h-75z" />
<glyph unicode="&#xe1;" horiz-adv-x="1122" d="M74 460q0 202 142.5 344t342.5 142q202 0 344 -142q27 -28 50 -59v123h80v-868h-80v177q-23 -31 -50 -59q-142 -143 -344 -143q-200 0 -342.5 142.5t-142.5 342.5zM158 460q0 -166 117.5 -283t283.5 -117t284 118q88 88 110 204v157q-22 117 -110 205q-118 118 -284 118 t-283.5 -118t-117.5 -284zM457 1052l144 165h147l-217 -165h-74z" />
<glyph unicode="&#xe2;" horiz-adv-x="1122" d="M74 460q0 202 142.5 344t342.5 142q202 0 344 -142q27 -28 50 -59v123h80v-868h-80v177q-23 -31 -50 -59q-142 -143 -344 -143q-200 0 -342.5 142.5t-142.5 342.5zM158 460q0 -166 117.5 -283t283.5 -117t284 118q88 88 110 204v157q-22 117 -110 205q-118 118 -284 118 t-283.5 -118t-117.5 -284zM321 1053l228 187l237 -187h-92l-145 106l-135 -106h-93z" />
<glyph unicode="&#xe3;" horiz-adv-x="1122" d="M74 460q0 202 142.5 344t342.5 142q202 0 344 -142q27 -28 50 -59v123h80v-868h-80v177q-23 -31 -50 -59q-142 -143 -344 -143q-200 0 -342.5 142.5t-142.5 342.5zM158 460q0 -166 117.5 -283t283.5 -117t284 118q88 88 110 204v157q-22 117 -110 205q-118 118 -284 118 t-283.5 -118t-117.5 -284zM362 1074q1 37 9 60q18 55 63 74q11 5 25 5q41 0 104 -46q59 -43 82 -43h4q18 7 26 32q4 14 4 49l66 -13q-2 -37 -10 -61q-18 -55 -62 -74q-12 -4 -25 -4q-41 0 -105 45q-59 44 -82 44q-3 0 -4 -1q-17 -6 -25 -32q-5 -14 -5 -49z" />
<glyph unicode="&#xe4;" horiz-adv-x="1122" d="M74 460q0 202 142.5 344t342.5 142q202 0 344 -142q27 -28 50 -59v123h80v-868h-80v177q-23 -31 -50 -59q-142 -143 -344 -143q-200 0 -342.5 142.5t-142.5 342.5zM158 460q0 -166 117.5 -283t283.5 -117t284 118q88 88 110 204v157q-22 117 -110 205q-118 118 -284 118 t-283.5 -118t-117.5 -284zM342 1137q0 32 23.5 55t56.5 23q32 0 55.5 -23t23.5 -55q0 -34 -23.5 -57t-55.5 -23q-33 0 -56.5 23t-23.5 57zM607 1137q0 32 23.5 55t56.5 23q32 0 55.5 -23t23.5 -55q0 -34 -23.5 -57t-55.5 -23q-33 0 -56.5 23t-23.5 57z" />
<glyph unicode="&#xe5;" horiz-adv-x="1122" d="M74 460q0 202 143 344q133 133 318 141q-35 6 -61 32q-34 33 -34 80t33.5 80t80.5 33q46 0 79.5 -33t33.5 -80t-33 -80q-26 -25 -59 -31q192 -6 328 -142q27 -28 50 -59v123h80v-868h-80v177q-23 -31 -50 -59q-142 -143 -344 -143q-200 0 -342.5 142.5t-142.5 342.5z M158 460q0 -166 117.5 -283t283.5 -117t284 118q88 88 110 204v157q-22 117 -110 205q-118 118 -284 118t-283.5 -118t-117.5 -284zM502 1057q0 -21 15 -36.5t37 -15.5q21 0 36 15.5t15 36.5q0 22 -15 37t-36 15q-22 0 -37 -15t-15 -37z" />
<glyph unicode="&#xe6;" horiz-adv-x="1873" d="M74 460q0 202 142.5 344t342.5 142q202 0 344 -142q27 -28 50 -59v123h80v-48q137 126 326 126q201 0 343 -142q126 -126 131 -299l-800 1v-280q18 -25 42 -48q118 -118 284 -118t283 118q21 20 38 42l85 -30q-15 -25 -63 -72q-142 -143 -343 -143q-189 0 -326 127v-102 h-80v177q-23 -31 -50 -59q-142 -143 -344 -143q-200 0 -342.5 142.5t-142.5 342.5zM158 460q0 -166 117.5 -283t283.5 -117t284 118q42 42 69 90q30 53 41 114v157q-11 61 -41 114q-27 49 -69 91q-118 118 -284 118t-283.5 -118t-117.5 -284zM1033 586h705q-28 91 -96 158 q-117 118 -283 118t-284 -118q-24 -24 -42 -49v-109z" />
<glyph unicode="&#xe7;" horiz-adv-x="985" d="M52 461q0 201 142.5 343t342.5 142q202 0 344 -142q29 -29 52 -60l-84 -31q-13 16 -28 32q-118 117 -284 117q-165 0 -282.5 -117.5t-117.5 -283.5t117.5 -283.5t282.5 -117.5q166 0 284 118q15 15 28 31l84 -31q-23 -31 -52 -60q-142 -143 -344 -143q-17 0 -33 1 l-11 -28q92 -7 118 -61q14 -29 14 -56q0 -23 -11 -44q-23 -45 -85 -55q-23 -4 -43 -4q-34 0 -58 11q-39 17 -67 39l37 40q34 -35 73 -35q10 0 21 3q47 11 47 57v6q-3 43 -99 43q-17 0 -37 -1l39 93q-140 26 -247 134q-143 142 -143 343z" />
<glyph unicode="&#xe8;" horiz-adv-x="1042" d="M52 460q0 202 142.5 344t342.5 142q202 0 344 -142q125 -126 125 -299h-867q-3 -21 -3 -45q0 -166 117.5 -283t283.5 -117t284 118q20 20 38 42l85 -30q-15 -25 -63 -72q-142 -143 -344 -143q-200 0 -342.5 142.5t-142.5 342.5zM154 586h762q-28 91 -95 158 q-118 118 -284 118t-284 -118q-70 -71 -99 -158zM335 1217h147l144 -165h-75z" />
<glyph unicode="&#xe9;" horiz-adv-x="1042" d="M52 460q0 202 142.5 344t342.5 142q202 0 344 -142q125 -126 125 -299h-867q-3 -21 -3 -45q0 -166 117.5 -283t283.5 -117t284 118q20 20 38 42l85 -30q-15 -25 -63 -72q-142 -143 -344 -143q-200 0 -342.5 142.5t-142.5 342.5zM154 586h762q-28 91 -95 158 q-118 118 -284 118t-284 -118q-70 -71 -99 -158zM432 1052l144 165h147l-217 -165h-74z" />
<glyph unicode="&#xea;" horiz-adv-x="1042" d="M52 460q0 202 142.5 344t342.5 142q202 0 344 -142q125 -126 125 -299h-867q-3 -21 -3 -45q0 -166 117.5 -283t283.5 -117t284 118q20 20 38 42l85 -30q-15 -25 -63 -72q-142 -143 -344 -143q-200 0 -342.5 142.5t-142.5 342.5zM154 586h762q-28 91 -95 158 q-118 118 -284 118t-284 -118q-70 -71 -99 -158zM297 1053l228 187l237 -187h-92l-145 106l-135 -106h-93z" />
<glyph unicode="&#xeb;" horiz-adv-x="1042" d="M52 460q0 202 142.5 344t342.5 142q202 0 344 -142q125 -126 125 -299h-867q-3 -21 -3 -45q0 -166 117.5 -283t283.5 -117t284 118q20 20 38 42l85 -30q-15 -25 -63 -72q-142 -143 -344 -143q-200 0 -342.5 142.5t-142.5 342.5zM154 586h762q-28 91 -95 158 q-118 118 -284 118t-284 -118q-70 -71 -99 -158zM317 1137q0 32 23.5 55t56.5 23q32 0 55.5 -23t23.5 -55q0 -34 -23.5 -57t-55.5 -23q-33 0 -56.5 23t-23.5 57zM582 1137q0 32 23.5 55t56.5 23q32 0 55.5 -23t23.5 -55q0 -34 -23.5 -57t-55.5 -23q-33 0 -56.5 23t-23.5 57z " />
<glyph unicode="&#xec;" horiz-adv-x="317" d="M-35 1217h147l144 -165h-75zM119 0v868h79v-868h-79z" />
<glyph unicode="&#xed;" horiz-adv-x="317" d="M62 1052l144 165h147l-217 -165h-74zM119 0v868h79v-868h-79z" />
<glyph unicode="&#xee;" horiz-adv-x="317" d="M-94 1053l228 187l237 -187h-92l-145 106l-135 -106h-93zM99 0v868h79v-868h-79z" />
<glyph unicode="&#xef;" horiz-adv-x="317" d="M-53 1137q0 32 23.5 55t56.5 23q32 0 55.5 -23t23.5 -55q0 -34 -23.5 -57t-55.5 -23q-33 0 -56.5 23t-23.5 57zM120 0v868h79v-868h-79zM212 1137q0 32 23.5 55t56.5 23q32 0 55.5 -23t23.5 -55q0 -34 -23.5 -57t-55.5 -23q-33 0 -56.5 23t-23.5 57z" />
<glyph unicode="&#xf0;" horiz-adv-x="1114" d="M72 460q0 202 142.5 344t342.5 142q39 0 95 -5l-195 176l-143 -143h-114l200 200l-197 196h112l141 -140l137 137h114l-194 -194q343 -325 388 -369q141 -142 141 -344q0 -200 -141.5 -342.5t-343.5 -142.5q-200 0 -342.5 142.5t-142.5 342.5zM156 460q0 -166 117.5 -283 t283.5 -117t283.5 117t117.5 283t-117.5 284t-283.5 118t-283.5 -118t-117.5 -284z" />
<glyph unicode="&#xf1;" horiz-adv-x="879" d="M99 0v868h80v-56q108 108 252 108q154 0 250.5 -96.5t98.5 -242.5v-581h-79v573q0 111 -80 189t-190 78q-109 0 -189 -77q-43 -43 -63 -89v-674h-80zM248 1074q1 37 9 60q18 55 63 74q11 5 25 5q41 0 104 -46q59 -43 82 -43h4q18 7 26 32q4 14 4 49l66 -13 q-2 -37 -10 -61q-18 -55 -62 -74q-12 -4 -25 -4q-41 0 -105 45q-59 44 -82 44q-3 0 -4 -1q-17 -6 -25 -32q-5 -14 -5 -49z" />
<glyph unicode="&#xf2;" horiz-adv-x="1114" d="M72 460q0 202 142.5 344t342.5 142q202 0 343.5 -142t141.5 -344q0 -200 -141.5 -342.5t-343.5 -142.5q-200 0 -342.5 142.5t-142.5 342.5zM156 460q0 -166 117.5 -283t283.5 -117t283.5 117t117.5 283t-117.5 284t-283.5 118t-283.5 -118t-117.5 -284zM363 1217h147 l144 -165h-75z" />
<glyph unicode="&#xf3;" horiz-adv-x="1114" d="M72 460q0 202 142.5 344t342.5 142q202 0 343.5 -142t141.5 -344q0 -200 -141.5 -342.5t-343.5 -142.5q-200 0 -342.5 142.5t-142.5 342.5zM156 460q0 -166 117.5 -283t283.5 -117t283.5 117t117.5 283t-117.5 284t-283.5 118t-283.5 -118t-117.5 -284zM460 1052l144 165 h147l-217 -165h-74z" />
<glyph unicode="&#xf4;" horiz-adv-x="1114" d="M72 460q0 202 142.5 344t342.5 142q202 0 343.5 -142t141.5 -344q0 -200 -141.5 -342.5t-343.5 -142.5q-200 0 -342.5 142.5t-142.5 342.5zM156 460q0 -166 117.5 -283t283.5 -117t283.5 117t117.5 283t-117.5 284t-283.5 118t-283.5 -118t-117.5 -284zM325 1053l228 187 l237 -187h-92l-145 106l-135 -106h-93z" />
<glyph unicode="&#xf5;" horiz-adv-x="1114" d="M72 460q0 202 142.5 344t342.5 142q202 0 343.5 -142t141.5 -344q0 -200 -141.5 -342.5t-343.5 -142.5q-200 0 -342.5 142.5t-142.5 342.5zM156 460q0 -166 117.5 -283t283.5 -117t283.5 117t117.5 283t-117.5 284t-283.5 118t-283.5 -118t-117.5 -284zM366 1074 q1 37 9 60q18 55 63 74q11 5 25 5q41 0 104 -46q59 -43 82 -43h4q18 7 26 32q4 14 4 49l66 -13q-2 -37 -10 -61q-18 -55 -62 -74q-12 -4 -25 -4q-41 0 -105 45q-59 44 -82 44q-3 0 -4 -1q-17 -6 -25 -32q-5 -14 -5 -49z" />
<glyph unicode="&#xf6;" horiz-adv-x="1114" d="M72 460q0 202 142.5 344t342.5 142q202 0 343.5 -142t141.5 -344q0 -200 -141.5 -342.5t-343.5 -142.5q-200 0 -342.5 142.5t-142.5 342.5zM156 460q0 -166 117.5 -283t283.5 -117t283.5 117t117.5 283t-117.5 284t-283.5 118t-283.5 -118t-117.5 -284zM345 1137 q0 32 23.5 55t56.5 23q32 0 55.5 -23t23.5 -55q0 -34 -23.5 -57t-55.5 -23q-33 0 -56.5 23t-23.5 57zM610 1137q0 32 23.5 55t56.5 23q32 0 55.5 -23t23.5 -55q0 -34 -23.5 -57t-55.5 -23q-33 0 -56.5 23t-23.5 57z" />
<glyph unicode="&#xf7;" d="M85 633v80h900v-80h-900zM456 365q0 33 23.5 56t56.5 23q32 0 55.5 -23t23.5 -56t-23.5 -56t-55.5 -23q-33 0 -56.5 23t-23.5 56zM456 982q0 33 23.5 56t56.5 23q32 0 55.5 -23t23.5 -56t-23.5 -56t-55.5 -23q-33 0 -56.5 23t-23.5 56z" />
<glyph unicode="&#xf8;" horiz-adv-x="1080" d="M55 461q0 202 142.5 344t342.5 142q114 0 210 -46l107 188l70 -37l-110 -190q35 -25 67 -57q141 -142 141 -344q0 -200 -141.5 -342.5t-343.5 -142.5q-114 0 -208 46l-109 -188l-70 33l111 195q-35 25 -67 56q-142 143 -142 343zM139 461q0 -166 117 -283q24 -24 51 -43 l399 693q-76 34 -166 34q-166 0 -283.5 -117.5t-117.5 -283.5zM374 95q76 -34 166 -34q166 0 283.5 117t117.5 283t-117 284q-24 24 -50 42z" />
<glyph unicode="&#xf9;" horiz-adv-x="880" d="M87 327v542h80v-535q0 -110 80 -188q79 -79 197 -79q110 0 189.5 78.5t79.5 188.5v535h80v-542q-3 -147 -99 -243t-249 -96q-163 0 -259 96t-99 243zM246 1217h147l144 -165h-75z" />
<glyph unicode="&#xfa;" horiz-adv-x="880" d="M87 327v542h80v-535q0 -110 80 -188q79 -79 197 -79q110 0 189.5 78.5t79.5 188.5v535h80v-542q-3 -147 -99 -243t-249 -96q-163 0 -259 96t-99 243zM343 1052l144 165h147l-217 -165h-74z" />
<glyph unicode="&#xfb;" horiz-adv-x="880" d="M87 327v542h80v-535q0 -110 80 -188q79 -79 197 -79q110 0 189.5 78.5t79.5 188.5v535h80v-542q-3 -147 -99 -243t-249 -96q-163 0 -259 96t-99 243zM208 1053l228 187l237 -187h-92l-145 106l-135 -106h-93z" />
<glyph unicode="&#xfc;" horiz-adv-x="880" d="M87 327v542h80v-535q0 -110 80 -188q79 -79 197 -79q110 0 189.5 78.5t79.5 188.5v535h80v-542q-3 -147 -99 -243t-249 -96q-163 0 -259 96t-99 243zM228 1137q0 32 23.5 55t56.5 23q32 0 55.5 -23t23.5 -55q0 -34 -23.5 -57t-55.5 -23q-33 0 -56.5 23t-23.5 57z M493 1137q0 32 23.5 55t56.5 23q32 0 55.5 -23t23.5 -55q0 -34 -23.5 -57t-55.5 -23q-33 0 -56.5 23t-23.5 57z" />
<glyph unicode="&#xfd;" horiz-adv-x="779" d="M15 868h89l285 -606l286 606h89l-329 -705h-1l-229 -493h-89l229 491zM293 1052l144 165h147l-217 -165h-74z" />
<glyph unicode="&#xfe;" horiz-adv-x="1204" d="M127 -316v1553h80v-487q21 28 46 54q143 141 343 141q202 0 343.5 -141.5t141.5 -343.5q0 -200 -141.5 -342.5t-343.5 -142.5q-200 0 -343 143q-25 25 -46 53v-487h-80zM207 361q25 -104 106 -184q117 -118 283 -118t283.5 117.5t117.5 283.5t-117.5 284t-283.5 118 t-283 -118q-81 -80 -106 -185v-198z" />
<glyph unicode="&#xff;" horiz-adv-x="779" d="M15 868h89l285 -606l286 606h89l-329 -705h-1l-229 -493h-89l229 491zM178 1137q0 32 23.5 55t56.5 23q32 0 55.5 -23t23.5 -55q0 -34 -23.5 -57t-55.5 -23q-33 0 -56.5 23t-23.5 57zM443 1137q0 32 23.5 55t56.5 23q32 0 55.5 -23t23.5 -55q0 -34 -23.5 -57t-55.5 -23 q-33 0 -56.5 23t-23.5 57z" />
<glyph unicode="&#x152;" horiz-adv-x="2014" d="M88 709q0 300 212.5 512.5t512.5 212.5q122 0 229 -20h884v-80h-742q76 -46 143 -112q199 -200 211 -475h388v-80h-388q-14 -274 -211 -471q-70 -70 -149 -116h748v-80h-884q-107 -17 -229 -17q-300 0 -512.5 212.5t-212.5 513.5zM169 709q0 -267 189 -456t455 -189 q123 0 229 39q41 16 80 37q78 44 147 113q174 174 188 414q1 20 1 42q0 19 -1 38q-13 242 -188 418q-69 68 -147 111q-39 21 -80 37q-106 40 -229 40q-266 0 -455 -189t-189 -455z" />
<glyph unicode="&#x153;" horiz-adv-x="1826" d="M66 460q0 202 142.5 344t342.5 142q202 0 344 -142q19 -20 37 -41q17 21 37 41q142 142 343 142t344 -142q125 -126 130 -299l-752 1q2 -23 2 -46q0 -125 -55 -228q21 -28 47 -54q118 -118 284 -118t284 118q20 20 38 42l84 -30q-15 -25 -62 -72q-143 -143 -344 -143 t-343 143q-20 20 -37 41q-18 -21 -37 -41q-142 -143 -344 -143q-200 0 -342.5 142.5t-142.5 342.5zM150 460q0 -166 117.5 -283t283.5 -117t283.5 117t117.5 283t-117.5 284t-283.5 118t-283.5 -118t-117.5 -284zM981 688q26 -48 40 -102h670q-28 91 -95 158 q-118 118 -284 118t-284 -118q-26 -27 -47 -56z" />
<glyph unicode="&#x178;" horiz-adv-x="1116" d="M32 1414h91l435 -754l435 754h91l-486 -842v-572h-80v572zM346 1603q0 32 23.5 55t56.5 23q32 0 55.5 -23t23.5 -55q0 -34 -23.5 -57t-55.5 -23q-33 0 -56.5 23t-23.5 57zM611 1603q0 32 23.5 55t56.5 23q32 0 55.5 -23t23.5 -55q0 -34 -23.5 -57t-55.5 -23 q-33 0 -56.5 23t-23.5 57z" />
<glyph unicode="&#x2c6;" horiz-adv-x="655" d="M95 973l228 187l237 -187h-92l-145 106l-135 -106h-93z" />
<glyph unicode="&#x2dc;" horiz-adv-x="533" d="M75 994q1 37 9 60q18 55 63 74q11 5 25 5q41 0 104 -46q59 -43 82 -43h4q18 7 26 32q4 14 4 49l66 -13q-2 -37 -10 -61q-18 -55 -62 -74q-12 -4 -25 -4q-41 0 -105 45q-59 44 -82 44q-3 0 -4 -1q-17 -6 -25 -32q-5 -14 -5 -49z" />
<glyph unicode="&#x2000;" horiz-adv-x="853" />
<glyph unicode="&#x2001;" horiz-adv-x="1706" />
<glyph unicode="&#x2002;" horiz-adv-x="853" />
<glyph unicode="&#x2003;" horiz-adv-x="1706" />
<glyph unicode="&#x2004;" horiz-adv-x="568" />
<glyph unicode="&#x2005;" horiz-adv-x="426" />
<glyph unicode="&#x2006;" horiz-adv-x="284" />
<glyph unicode="&#x2007;" horiz-adv-x="284" />
<glyph unicode="&#x2008;" horiz-adv-x="213" />
<glyph unicode="&#x2009;" horiz-adv-x="341" />
<glyph unicode="&#x200a;" horiz-adv-x="94" />
<glyph unicode="&#x2010;" horiz-adv-x="596" d="M48 483v80h500v-80h-500z" />
<glyph unicode="&#x2011;" horiz-adv-x="596" d="M48 483v80h500v-80h-500z" />
<glyph unicode="&#x2012;" horiz-adv-x="596" d="M48 483v80h500v-80h-500z" />
<glyph unicode="&#x2013;" horiz-adv-x="681" d="M0 483v80h681v-80h-681z" />
<glyph unicode="&#x2014;" horiz-adv-x="1254" d="M0 483v80h1254v-80h-1254z" />
<glyph unicode="&#x2018;" horiz-adv-x="255" d="M49 1205q0 19 6 35l87 174h57l-50 -132q20 -4 36 -20q23 -23 23 -57q0 -33 -23.5 -56t-55.5 -23q-33 0 -56.5 23t-23.5 56z" />
<glyph unicode="&#x2019;" horiz-adv-x="255" d="M48 1345q0 33 23.5 55.5t56.5 22.5q32 0 55.5 -22.5t23.5 -55.5q0 -19 -6 -35l-87 -175h-57l50 133q-20 4 -35 20q-24 23 -24 57z" />
<glyph unicode="&#x201a;" horiz-adv-x="255" d="M48 65q0 33 23.5 56t56.5 23q32 0 55.5 -23t23.5 -56q0 -18 -6 -34l-87 -175h-57l50 133q-20 4 -35 20q-24 23 -24 56z" />
<glyph unicode="&#x201c;" horiz-adv-x="478" d="M48 1205q0 19 6 35l87 174h57l-50 -132q20 -4 36 -20q23 -23 23 -57q0 -33 -23.5 -56t-55.5 -23q-33 0 -56.5 23t-23.5 56zM271 1205q0 19 6 35l87 174h57l-50 -132q20 -4 36 -20q23 -23 23 -57q0 -33 -23.5 -56t-55.5 -23q-33 0 -56.5 23t-23.5 56z" />
<glyph unicode="&#x201d;" horiz-adv-x="478" d="M48 1345q0 33 23.5 55.5t56.5 22.5q32 0 55.5 -22.5t23.5 -55.5q0 -19 -6 -35l-87 -175h-57l50 133q-20 4 -35 20q-24 23 -24 57zM271 1345q0 33 23.5 55.5t56.5 22.5q32 0 55.5 -22.5t23.5 -55.5q0 -19 -6 -35l-87 -175h-57l50 133q-20 4 -35 20q-24 23 -24 57z" />
<glyph unicode="&#x201e;" horiz-adv-x="478" d="M48 66q0 33 23.5 55.5t56.5 22.5q32 0 55.5 -22.5t23.5 -55.5q0 -19 -6 -35l-87 -175h-57l50 133q-20 4 -35 20q-24 23 -24 57zM271 66q0 33 23.5 55.5t56.5 22.5q32 0 55.5 -22.5t23.5 -55.5q0 -19 -6 -35l-87 -175h-57l50 133q-20 4 -35 20q-24 23 -24 57z" />
<glyph unicode="&#x2022;" horiz-adv-x="670" d="M200 657q0 56 40 95t96 39q54 0 94 -39t40 -95t-40 -95t-94 -39q-56 0 -96 39t-40 95z" />
<glyph unicode="&#x2026;" horiz-adv-x="2048" d="M55 67q0 33 23.5 56t56.5 23q32 0 55.5 -23t23.5 -56t-23.5 -56t-55.5 -23q-33 0 -56.5 23t-23.5 56zM738 67q0 33 23.5 56t56.5 23q32 0 55.5 -23t23.5 -56t-23.5 -56t-55.5 -23q-33 0 -56.5 23t-23.5 56zM1421 67q0 33 23.5 56t56.5 23q32 0 55.5 -23t23.5 -56 t-23.5 -56t-55.5 -23q-33 0 -56.5 23t-23.5 56z" />
<glyph unicode="&#x202f;" horiz-adv-x="341" />
<glyph unicode="&#x2039;" horiz-adv-x="596" d="M100 425l396 425v-113l-291 -312l291 -311v-114z" />
<glyph unicode="&#x203a;" horiz-adv-x="596" d="M100 0v114l290 311l-290 312v113l396 -425z" />
<glyph unicode="&#x205f;" horiz-adv-x="426" />
<glyph unicode="&#x20ac;" horiz-adv-x="1044" d="M-10 511l20 80h128q-5 57 -5 120h-123l20 80h105q15 275 131 435q132 182 396 187q192 0 294 -90l-5 -89q-115 99 -293 99q-216 -10 -318 -167q-89 -135 -112 -375h534l-16 -80h-522v-21q0 -52 4 -99h514l-16 -80h-488q37 -163 107 -270q107 -167 367 -172q190 6 307 105 v-105q-130 -80 -312 -80q-290 0 -432 192q-97 132 -128 330h-157z" />
<glyph unicode="&#x2122;" horiz-adv-x="1255" d="M50 1344v70h579l229 -352l228 352h69v-604h-74v462l-223 -343l-224 344v-463h-73v534h-216v-534h-74v534h-221z" />
<glyph unicode="&#x25fc;" horiz-adv-x="870" d="M0 0v870h870v-870h-870z" />
</font>
</defs>
</svg>
